<?xml version="1.0" standalone="no"?>
<!DOCTYPE svg PUBLIC "-//W3C//DTD SVG 1.1//EN" "http://www.w3.org/Graphics/SVG/1.1/DTD/svg11.dtd" >
<svg xmlns="http://www.w3.org/2000/svg">
<metadata>Generated by IcoMoon</metadata>
<defs>
<font id="iconkagawa" horiz-adv-x="1024">
<font-face units-per-em="1024" ascent="960" descent="-64" />
<missing-glyph horiz-adv-x="1024" />
<glyph unicode="&#x20;" horiz-adv-x="512" d="" />
<glyph unicode="&#xe900;" glyph-name="book" horiz-adv-x="1201" d="M494.111 555.082c-3.097 0-6.237 0.59-9.271 1.854-81.059 33.566-170.315 33.566-251.375 0-12.369-5.12-26.528 0.759-31.669 13.106-5.12 12.369 0.759 26.549 13.106 31.669 93.007 38.517 195.453 38.517 288.46 0 12.369-5.12 18.226-19.301 13.106-31.669-3.856-9.334-12.895-14.96-22.398-14.96zM494.111 403.73c-3.097 0-6.237 0.59-9.271 1.854-81.059 33.566-170.315 33.566-251.375 0-12.369-5.12-26.528 0.759-31.669 13.106-5.12 12.369 0.759 26.549 13.106 31.669 93.007 38.517 195.453 38.517 288.46 0 12.369-5.12 18.226-19.301 13.106-31.669-3.856-9.334-12.895-14.96-22.398-14.96zM494.111 252.378c-3.097 0-6.237 0.59-9.271 1.854-81.059 33.566-170.315 33.566-251.375 0-12.369-5.12-26.528 0.759-31.669 13.106-5.12 12.369 0.759 26.528 13.106 31.669 93.007 38.517 195.453 38.517 288.46 0 12.369-5.12 18.226-19.301 13.106-31.669-3.856-9.334-12.895-14.96-22.398-14.96zM1183.738 579.988c-22.525 11.463-45.703 21.619-69.407 30.405v220.569c0 14.834-10.304 27.687-24.779 30.932-35.715 7.986-73.010 11.926-111.064 11.863v54.552c0 9.419-4.193 18.353-11.441 24.379s-16.793 8.513-26.044 6.785c-119.788-22.251-246.023-101.772-349.418-219.411-153.058 69.365-331.254 65.783-481.658-10.851-10.62-5.415-17.299-16.33-17.299-28.235v-88.413c-25.749-9.271-50.928-20.123-75.328-32.554-10.62-5.415-17.299-16.33-17.299-28.235v-584.083c0-11.020 5.731-21.26 15.129-27.013 9.398-5.773 21.134-6.237 30.953-1.222 168.883 86.053 370.552 86.053 539.434 0 4.53-2.318 9.461-3.456 14.391-3.456 0.19 0 0.485 0 0.674 0 5.141-0.105 10.198 1.054 14.939 3.456 168.883 86.053 370.552 86.053 539.434 0 4.53-2.318 9.461-3.456 14.391-3.456 5.752 0 11.505 1.559 16.562 4.678 9.398 5.752 15.129 15.993 15.129 27.013v584.062c0 11.926-6.679 22.82-17.299 28.235zM1137.656 17.186c-79.753 33.081-166.059 50.401-252.407 50.401-69.133 0-138.267-11.146-204.008-32.554 125.456 93.554 269.938 140.648 398.196 127.5 8.892-0.885 17.805 2.002 24.463 8.007s10.451 14.56 10.451 23.515v348.195c7.817-3.266 15.613-6.658 23.325-10.261v-514.781zM63.381 17.186v514.802c9.65 4.53 19.406 8.765 29.246 12.748v-444.426c0-10.051 4.762-19.491 12.832-25.475s18.5-7.775 28.108-4.846c99.897 30.511 211.72 23.789 316.947-16.477-44.27 9.292-89.488 14.075-134.727 14.075-86.348 0-172.654-17.32-252.407-50.401zM156.008 681.128c130.386 60.094 281.738 60.094 412.145 0.021v-614.046c-63.086 36.937-131.356 62.833-200.215 75.707-34.43 6.448-69.007 9.65-103.163 9.65-37.021 0-73.516-3.772-108.747-11.252v539.919zM833.056 854.541c27.329 14.244 54.826 25.517 82.050 33.566v-540.656c-97.937-49.896-197.075-134.727-282.286-240.545-0.4-0.506-0.822-1.011-1.222-1.517l-0.063-0.063v584.083l0.063 0.063c28.087 32.892 57.966 62.601 88.919 88.729 36.41 30.7 74.296 56.428 112.539 76.34zM1050.95 227.873c-71.156 2.044-146.758-11.168-220.78-38.77-20.397-7.607-40.477-16.225-60.284-25.77 61.4 59.125 126.509 105.881 190.312 135.591 11.168 5.204 18.311 16.414 18.311 28.741v482.69c24.526 0.063 48.737-1.728 72.441-5.563v-576.919z" />
<glyph unicode="&#xe901;" glyph-name="doctor" horiz-adv-x="642" d="M288.757 390.047h67.981v-47.115h-67.981v47.115zM419.426 390.047l-57.197-114.43-5.491 49.942h-67.981l-6.085-55.361-59.915 119.831c-129.229-59.123-222.757-231.65-222.757-435.323 0-6.265 0.108-12.494 0.288-18.706h641.607c0.18 6.211 0.288 12.44 0.288 18.706 0 203.673-93.528 376.218-222.775 435.341zM45.567-18.991c3.457 81.844 23.080 159.078 57.287 224.791 26.825 51.58 61.86 93.42 101.017 121.397l117.22-234.477 117.22 234.477c39.175-27.959 74.192-69.817 101.035-121.397 34.189-65.713 53.83-142.965 57.287-224.791h-551.067zM381.853 85.123h147.736v-36.007h-147.736v36.007zM576.722 836.658c0 68.125-55.217 123.342-123.342 123.342-38.527 0-72.914-17.679-95.526-45.351-11.99 1.818-24.269 2.755-36.763 2.755-14.835 0-29.364-1.332-43.478-3.853-22.27-3.997-43.496-11.036-63.246-20.632-81.394-39.608-137.474-123.090-137.474-219.696 0-4.681 0.144-9.326 0.396-13.935 7.219-128.383 113.602-230.264 243.785-230.264s239.77 104.978 244.055 236.097c0.090 2.701 0.144 5.383 0.144 8.102 0 30.39-5.563 59.465-15.717 86.309 16.959 21.118 27.131 47.943 27.131 77.145zM321.091 478.894c-107.319 0-194.311 86.993-194.311 194.311 0 4.915 0.18 9.794 0.54 14.637 51.49 35.143 93.402 83.302 121.019 139.725 58.493-88.973 155.28-150.509 266.937-161.149-3.583-104.168-89.153-187.524-194.185-187.524zM453.381 749.792c-47.979 0-86.867 38.887-86.867 86.867s38.905 86.885 86.867 86.885 86.867-38.887 86.867-86.885-38.887-86.867-86.867-86.867zM483.501 836.658c0-16.635-13.485-30.12-30.12-30.12s-30.12 13.485-30.12 30.12 13.485 30.12 30.12 30.12 30.12-13.485 30.12-30.12z" />
<glyph unicode="&#xe902;" glyph-name="human" horiz-adv-x="632" d="M632.033-64c0.18 6.476 0.288 12.97 0.288 19.518 0 263.47-141.557 477.056-316.16 477.056s-316.16-213.586-316.16-477.056c0-6.548 0.108-13.042 0.288-19.518h631.745zM316.16 960c-20.742 0-40.889-2.501-60.192-7.178-33.802-8.185-64.995-23.116-92.015-43.282-62.261-46.448-102.574-120.69-102.574-204.339 0-4.533 0.126-9.013 0.36-13.492 7.016-134.451 118.243-241.307 254.439-241.307s250.104 109.464 254.637 246.218c0.090 2.842 0.162 5.703 0.162 8.581-0.018 140.73-114.106 254.799-254.817 254.799zM316.16 502.462c-111.983 0-202.756 90.774-202.756 202.756 0 5.793 0.252 11.513 0.738 17.18 39.99 27.901 73.432 62.818 97.933 102.646 64.905-76.022 177.608-127.166 306.59-129.936-5.271-107.27-93.922-192.628-202.505-192.628z" />
<glyph unicode="&#xe903;" glyph-name="map" horiz-adv-x="1161" d="M855.34 667.908l-106.655 36.21c-0.844-21.142-3.829-41.913-8.934-62.19l84.711-28.758v-601.476l-213.063 72.339v325.791c-2.491-3.911-4.982-7.843-7.452-11.734-17.868-28.161-36.231-57.126-54.305-85.884v-228.173l-213.063-72.339v302.694c-17.642 28.038-35.531 56.261-52.947 83.722-2.923 4.611-5.867 9.243-8.811 13.895v-400.291l-213.063 72.339v601.456l82.611-28.038c-3.808 19.33-5.743 39.092-5.743 59.143 0 2.676 0.041 5.332 0.103 8.008l-138.728 47.080v-731.929l305.699-103.794 274.821 93.295 274.821-93.295 305.699 103.794v731.929l-305.699-103.794zM1099.282 84.033l-213.063-72.339v601.476l213.063 72.339v-601.476zM443.789 960v0c-134.425 0-243.407-108.981-243.407-243.407 0-34.255 7.082-66.842 19.845-96.424 5.908-13.669 126.562-205.858 178.664-288.901 12.496-19.886 28.697-29.849 44.898-29.829v0c16.201 0 32.402 9.943 44.898 29.829 52.103 83.043 172.756 275.212 178.664 288.901 12.763 29.561 19.845 62.169 19.845 96.424 0 134.425-108.981 243.407-243.407 243.407zM443.789 611.4c-57.414 0-103.938 46.545-103.938 103.938s46.545 103.938 103.938 103.938 103.938-46.545 103.938-103.938-46.545-103.938-103.938-103.938z" />
<glyph unicode="&#xe904;" glyph-name="note" horiz-adv-x="966" d="M509.534 840.215c-2.052-12.022-13.713-21.866-25.915-21.866h-278.604c-12.202 0-23.863 9.844-25.915 21.866l-16.719 97.919c-2.052 12.022 6.245 21.866 18.446 21.866h326.978c12.202 0 20.498-9.844 18.446-21.866l-16.719-97.919zM586.379 152.12v-110.3c0-9.394-7.684-17.061-17.061-17.061h-449.984c-9.394 0-17.061 7.684-17.061 17.061v646.812c0 9.394 7.684 17.061 17.061 17.061h437.441l131.878 139.779v29.172c0 18.77-15.369 34.139-34.139 34.139h-89.964l-12.939-75.765c-5.579-32.7-34.805-57.355-67.973-57.355h-278.622c-33.168 0-62.394 24.655-67.973 57.355l-12.939 75.765h-89.964c-18.77 0.018-34.139-15.333-34.139-34.121v-904.539c0-18.77 15.369-34.139 34.139-34.139h620.375c18.77 0 34.139 15.369 34.139 34.139v290.373l-102.256-108.393zM288.574 128.958c-2.807 2.663-4.049 6.587-3.239 10.384l50.156 237.68c0.414 1.998 1.386 3.851 2.789 5.327l423.943 449.336c4.211 4.463 11.248 4.661 15.693 0.45l184.212-173.792c4.463-4.211 4.661-11.248 0.45-15.711l-423.925-449.336c-1.404-1.494-3.185-2.556-5.165-3.095l-234.368-63.906c-3.725-1.026-7.72-0.018-10.546 2.627zM394.861 198.479l95.399 26.329-117.985 112.802-20.462-98.513 43.066-40.618z" />
<glyph unicode="&#xe905;" glyph-name="nurse" horiz-adv-x="616" d="M380.106 380.555l-72.029-216.25-72.029 216.232c-135.395-46.166-236.048-219.625-236.048-426.597 0-6.010 0.108-11.984 0.271-17.94h284.073l23.751 71.307 23.751-71.307h284.055c0.162 5.956 0.271 11.93 0.271 17.94 0 206.973-100.653 380.431-236.066 426.616zM585.744 361.912c-12.94 14.15-34.074 45.084-30.411 93.235 4.945 64.72-19.744 87.929-32.071 95.383 7.039 16.297 12.291 33.551 15.485 51.509 2.382 13.41 3.628 27.198 3.628 41.294 0 56.634-20.105 108.594-53.548 149.093l50.047 115.651-34.345 13.843c-62.626 25.285-128.717 38.081-196.433 38.081s-133.825-12.796-196.469-38.045l-34.327-13.843 50.065-115.687c-33.443-40.499-53.566-92.423-53.566-149.057 0-3.898 0.108-7.797 0.289-11.659 6.082-123.989 108.522-222.657 234.027-222.657 42.394 0 82.136 11.262 116.445 30.952 3.664-6.876 9.529-16.766 18.914-30.952 24.004-36.33 96.52-50.769 137.597-56.147 0.235-0.036 0.469-0.054 0.704-0.054 2.003 0 3.862 1.101 4.801 2.906 1.047 2.021 0.722 4.476-0.812 6.154zM308.095 918.49c60.515 0 119.621-11.099 175.786-32.992l-42.539-98.307c-42.647 16.117-87.442 24.274-133.247 24.274s-90.6-8.158-133.247-24.274l-42.539 98.307c56.165 21.892 115.272 32.992 175.786 32.992zM308.095 456.916c-102.981 0-186.453 83.471-186.453 186.453 0 0.632 0 1.281 0.018 1.913 56.291 20.394 95.708 52.267 122.762 92.369 43.351-72.895 120.109-122.888 245.974-133.482-18.012-84.139-92.784-147.253-182.302-147.253z" />
<glyph unicode="&#xe906;" glyph-name="student" horiz-adv-x="701" d="M505.208 321.77l-149.433-134.726c-1.415-1.269-3.192-1.904-4.951-1.904-0.091 0-0.181 0.018-0.272 0.036-0.091 0-0.181-0.036-0.272-0.036-1.759 0-3.536 0.635-4.951 1.904l-149.615 134.889c-80.647-77.31-134.182-213.269-134.182-368.125 0-5.966 0.109-11.915 0.254-17.827h577.15c0.163 5.912 0.254 11.86 0.254 17.827 0 154.729-53.444 290.615-134 367.944zM692.689 853.311l-338.873 106.163c-1.124 0.345-2.285 0.526-3.446 0.526s-2.321-0.181-3.446-0.526l-338.855-106.163c-4.806-1.505-8.070-5.948-8.070-10.99 0-5.023 3.264-9.467 8.070-10.972l158.646-49.672c-30.757-39.462-49.11-89.062-49.11-142.977 0-4.135 0.109-8.233 0.326-12.314 6.402-122.829 108.013-220.451 232.438-220.451s228.484 99.997 232.619 224.93c0.091 2.611 0.145 5.223 0.145 7.834 0 53.898-18.335 103.533-49.092 142.977l93.233 29.198v-67.064c0-0.544 0.073-1.070 0.199-1.596-8.251-2.593-14.345-10.809-14.345-20.493l-0.472-9.866h40.731l-0.472 9.866c0 9.684-6.075 17.899-14.345 20.493 0.109 0.508 0.199 1.034 0.199 1.596v70.673l53.898 16.866c4.806 1.505 8.070 5.948 8.070 10.972s-3.264 9.467-8.070 10.972zM350.371 453.486c-102.3 0-185.214 82.932-185.214 185.214 0 5.277 0.236 10.518 0.671 15.687 36.524 25.48 67.082 57.38 89.461 93.777 59.284-69.439 162.237-116.174 280.079-118.713-4.824-98.002-85.797-175.983-184.996-175.983zM612.115 700.359l-5.948-123.954h53.753l-5.966 123.954h-41.838zM350.371 389.632c-52.302 0-101.375-20.982-143.685-57.67l116.518-105.039 7.762 78.924h39.734l7.726-78.471 115.829 104.44c-42.364 36.796-91.492 57.833-143.866 57.833zM376.92 312.757v0.163h-53.281l-13.946 13.946 40.677 40.677 40.677-40.677-14.109-14.109z" />
<glyph unicode="&#xe907;" glyph-name="award" horiz-adv-x="745" d="M713.656 655.944c-23.444 14.839-57.739 15.144-102.059 1.006 1.168-17.354 1.725-37.439 1.796-49.26 30.702 11.3 60.883 17.3 75.004 8.354 10.042-6.36 10.599-24.45 9.306-38.517-3.288-35.696-26.301-69.434-64.799-95.034-13.635-9.054-28.672-16.636-44.373-22.51-6.809-19.51-14.929-38.319-24.271-56.122 33.469 6.934 66.237 20.336 94.783 39.325 50.607 33.648 81.040 79.818 85.675 130.012 4.545 49.278-14.39 72.201-31.079 82.764zM112.496 482.493c-38.481 25.6-61.494 59.338-64.799 95.034-1.293 14.067-0.737 32.157 9.306 38.517 14.084 8.929 44.355 2.874 75.129-8.444 0.072 11.803 0.629 31.924 1.796 49.314-44.391 14.174-78.722 13.887-102.184-0.952-16.689-10.563-35.624-33.487-31.079-82.764 4.635-50.194 35.068-96.364 85.675-130.012 28.582-19.007 61.422-32.445 94.945-39.361-9.342 17.803-17.462 36.612-24.271 56.104-15.737 5.892-30.846 13.474-44.517 22.564zM406.887 296.107c100.568 26.786 177.35 168.259 177.35 309.122 0 18.055-1.276 53.787-3.683 69.74h-415.708c-2.407-15.953-3.683-51.685-3.683-69.74 0-140.881 76.782-282.337 177.35-309.122-18.091-96.579-111.149-107.251-111.149-107.251v-52.062h290.672v52.062s-93.058 10.689-111.149 107.251zM227.382 101.241h290.672v-165.241h-290.672v165.241zM318.554 793.322l54.164 28.474 54.146-28.474-10.348 60.308 43.816 42.703-60.542 8.803-27.073 54.865-27.091-54.865-60.542-8.803 43.816-42.703-10.348-60.308zM127.928 761.631l30.63 26.39 39.11-10.294-15.629 37.295 21.863 34.008-40.295-3.324-25.582 31.295-9.288-39.361-37.672-14.659 34.564-20.983 2.3-40.367zM547.75 777.728l39.11 10.294 30.63-26.39 2.3 40.367 34.564 20.983-37.672 14.659-9.288 39.361-25.582-31.295-40.295 3.324 21.863-34.008-15.629-37.295z" />
<glyph unicode="&#xe908;" glyph-name="relation" horiz-adv-x="1172" d="M924.952 960c-136.67 0-247.463-110.793-247.463-247.463 0-15.786 1.507-31.236 4.334-46.206l-95.615-74.239-95.615 74.239c2.826 14.969 4.334 30.42 4.334 46.206 0 136.67-110.793 247.463-247.463 247.463s-247.463-110.793-247.463-247.463 110.793-247.463 247.463-247.463c96.452 0 180.008 55.187 220.833 135.707l85.189-66.137v-105.873c-121.198-16.016-214.74-119.733-214.74-245.307 0-136.67 110.793-247.463 247.463-247.463s247.463 110.793 247.463 247.463c0 125.574-93.542 229.291-214.74 245.307v105.873l85.189 66.137c40.825-80.52 124.381-135.707 220.833-135.707 136.67 0 247.463 110.793 247.463 247.463s-110.793 247.463-247.463 247.463zM247.463 853.080c29.017 0 52.633-23.616 52.633-52.633s-23.616-52.633-52.633-52.633-52.633 23.616-52.633 52.633 23.616 52.633 52.633 52.633zM362.758 564.289h-40.281v100.325h-18.947v-100.325h-112.133v100.325h-18.947v-100.325h-40.281v106.313c0 32.89 26.756 59.647 59.647 59.647h111.296c32.89 0 59.647-26.756 59.647-59.647v-106.313zM701.502 141.55v-106.313h-40.281v100.325h-18.947v-100.325h-112.133v100.325h-18.947v-100.325h-40.281v106.313c0 32.89 26.756 59.647 59.647 59.647h111.296c32.89 0 59.647-26.756 59.647-59.647zM638.82 271.394c0-29.017-23.616-52.633-52.633-52.633s-52.633 23.616-52.633 52.633 23.616 52.633 52.633 52.633 52.633-23.616 52.633-52.633zM924.952 853.080c29.017 0 52.633-23.616 52.633-52.633s-23.616-52.633-52.633-52.633-52.633 23.616-52.633 52.633 23.616 52.633 52.633 52.633zM1040.246 564.289h-40.281v100.325h-18.947v-100.325h-112.133v100.325h-18.947v-100.325h-40.281v106.313c0 32.89 26.756 59.647 59.647 59.647h111.296c32.89 0 59.647-26.756 59.647-59.647v-106.313z" />
<glyph unicode="&#xe909;" glyph-name="heartbox" horiz-adv-x="760" d="M748.378 525.021l-87.454 180.348h-168.233c-22.118-23.317-46.707-49.212-65.872-69.38h124.193l12.348-33.231h-366.279l12.348 33.231h124.193c-19.273 20.293-43.807 46.134-65.872 69.38h-168.215l-87.454-180.348h736.299zM0 478.243h760.457v-542.261h-760.457v542.261zM463.2 960c-36.954 0-68.825-24.588-82.962-59.77-14.137 35.182-46.009 59.77-82.98 59.77-50.035 0-90.747-45.060-90.747-100.464 0-26.628 10.845-54.24 29.026-73.818 13.421-14.459 138.205-145.774 139.475-147.099 1.485-1.557 3.346-2.344 5.225-2.344s3.74 0.787 5.225 2.344c1.253 1.324 126.054 132.639 139.475 147.099 18.164 19.595 29.026 47.19 29.026 73.818 0 55.404-40.712 100.464-90.747 100.464z" />
<glyph unicode="&#xe90a;" glyph-name="protect" horiz-adv-x="1122" d="M454.586 239.313l-0.059 0.256c-2.617 10.371-8.147 20.132-16.53 27.925l-188.033 174.16c-22.906 21.273-58.447 19.836-79.346-3.188-13.244-14.582-17.455-34.32-12.949-52.248 2.617-10.391 8.147-20.171 16.57-27.984l124.746-115.536-15.802-30.522-131.22 121.538c-12.909 11.985-22.021 27.374-26.311 44.475-7.419 29.578 0.256 60.572 20.565 82.947 5.549 6.101 11.748 11.237 18.4 15.428l-53.98 207.339c-7.635 30.424-38.217 48.981-68.286 41.424s-48.233-38.335-40.598-68.778l123.132-472.986c3.877-15.389 13.598-27.747 26.173-35.206l159.518-119.019 23.438-93.298h184.176s-63.268 302.015-63.603 303.313zM1079.357 725.308c-30.070 7.557-60.631-11.001-68.286-41.424l-53.98-207.339c6.652-4.192 12.87-9.308 18.4-15.428 20.309-22.375 27.984-53.37 20.565-82.947-4.29-17.101-13.401-32.49-26.311-44.475l-131.22-121.538-15.802 30.522 124.746 115.536c8.403 7.813 13.952 17.593 16.57 27.984 4.507 17.928 0.295 37.666-12.949 52.248-20.919 23.044-56.44 24.461-79.346 3.188l-188.033-174.16c-8.403-7.793-13.913-17.554-16.53-27.925v0l-0.059-0.256c-0.315-1.299-63.603-303.313-63.603-303.313h184.176l23.438 93.298 159.518 119.019c12.575 7.478 22.316 19.817 26.173 35.206l123.132 472.986c7.635 30.424-10.528 61.222-40.598 68.778zM476.41 450.47h168.886v170.322h170.322v168.886h-170.322v170.322h-168.886v-170.322h-170.322v-168.886h170.322v-170.322z" />
<glyph unicode="&#xe90b;" glyph-name="bed" horiz-adv-x="693" d="M547.517 81.498h101.933v-145.498h-101.933v145.498zM43.852 81.498h101.933v-145.498h-101.933v145.498zM43.852 280.477h605.579v-155.72h-605.579v155.72zM320.296 868.541h52.691c8.602 0 15.576-6.973 15.576-15.576v-5.192c0-8.602-6.973-15.576-15.576-15.576h-52.691c-8.602 0-15.576 6.973-15.576 15.576v5.192c0 8.602 6.973 15.576 15.576 15.576zM693.284 613.349c0 191.147-155.504 346.651-346.633 346.651s-346.651-155.504-346.651-346.651c0-87.058 32.265-166.696 85.459-227.633l-41.607-61.997h605.579l-41.607 61.997c53.194 60.937 85.459 140.575 85.459 227.633zM217.393 613.349c0 71.267 57.973 129.258 129.258 129.258s129.258-57.973 129.258-129.258c0-17.929-3.683-35.014-10.294-50.535h-237.927c-6.629 15.54-10.294 32.606-10.294 50.535zM513.401 526.453c9.126 17.426 15.594 36.469 18.863 56.554h98.717c-5.749-54.146-26.66-103.837-58.404-144.725l-59.158 88.172zM346.651 899.297c147.42 0 269.132-112.137 284.331-255.587h-98.717c-14.552 89.322-92.25 157.732-185.613 157.732s-171.062-68.392-185.613-157.732h-98.717c15.198 143.45 136.911 255.587 284.331 255.587zM62.32 583.006h98.717c3.27-20.085 9.737-39.128 18.863-56.554l-59.158-88.172c-31.744 40.888-52.673 90.561-58.404 144.725z" />
<glyph unicode="&#xe90c;" glyph-name="medicine" horiz-adv-x="946" d="M473.25 960l-473.25-229.699v-794.301h946.499v794.301l-473.25 229.699zM732.717 288.993h-172.822v-172.822h-173.29v172.822h-172.822v173.29h172.822v172.822h173.29v-172.822h172.822v-173.29z" />
<glyph unicode="&#xe90d;" glyph-name="movie" horiz-adv-x="1120" d="M725.48 464.34l-268.65 155.106c-12.577 7.251-28.298-1.808-28.298-16.33v-310.232c0-14.522 15.721-23.601 28.298-16.33l268.65 155.106c12.577 7.251 12.577 25.409 0 32.66zM1039.289 960h-958.464c-44.628 0-80.825-36.197-80.825-80.825v-862.33c0-44.647 36.197-80.825 80.825-80.825h958.464c44.647 0 80.825 36.197 80.825 80.825v862.33c0 44.647-36.197 80.825-80.825 80.825zM202.308 33.352h-137.008v87.978h137.008v-87.978zM202.308 218.681h-137.008v87.978h137.008v-87.978zM202.308 404.011h-137.008v87.978h137.008v-87.978zM202.308 589.341h-137.008v87.978h137.008v-87.978zM202.308 774.67h-137.008v87.978h137.008v-87.978zM852.485 46.832c0-7.448-6.033-13.481-13.481-13.481h-557.915c-7.448 0-13.481 6.033-13.481 13.481v802.355c0 7.448 6.033 13.481 13.481 13.481h557.934c7.448 0 13.481-6.033 13.481-13.481v-802.355zM1052.946 33.352h-137.008v87.978h137.008v-87.978zM1052.946 218.681h-137.008v87.978h137.008v-87.978zM1052.946 404.011h-137.008v87.978h137.008v-87.978zM1052.946 589.341h-137.008v87.978h137.008v-87.978zM1052.946 774.67h-137.008v87.978h137.008v-87.978z" />
<glyph unicode="&#xe90e;" glyph-name="persons" horiz-adv-x="892" d="M253.575 869.331c0-50.075-40.594-90.669-90.669-90.669s-90.669 40.594-90.669 90.669c0 50.075 40.594 90.669 90.669 90.669s90.669-40.594 90.669-90.669zM384.234 392.237l40.888 85.19s-111.49 232.125-112.245 233.4c-7.743 13.222-27.522 36.092-61.386 36.092h-211.393c-24.055 0-42.020-19.618-39.936-43.583l31.079-355.31c2.102-23.965 23.067-47.625 46.619-52.583l5.407-1.132 12.342-329.099c0.611-16.061 14.246-29.193 30.307-29.193h74.015c16.061 0 29.696 13.132 30.307 29.193l12.342 329.099 31.546 264.102 105.167-179.469c1.24 4.527 2.874 8.982 4.94 13.312zM851.645 746.918c24.055 0 42.020-19.618 39.936-43.583l-31.079-355.31c-2.102-23.965-23.067-47.625-46.619-52.583l-5.407-1.132-12.342-329.099c-0.611-16.061-14.246-29.193-30.307-29.193h-74.015c-16.061 0-29.696 13.132-30.307 29.193l-12.342 329.099-31.546 264.102-128.916-219.998c-10.474-17.749-33.037-24.953-51.955-15.881-19.959 9.593-28.385 33.54-18.791 53.517 0 0 160.157 333.501 160.912 334.794 7.743 13.222 27.522 36.092 61.386 36.092zM819.505 869.331c0-50.075-40.594-90.669-90.669-90.669s-90.669 40.594-90.669 90.669c0 50.075 40.594 90.669 90.669 90.669s90.669-40.594 90.669-90.669z" />
<glyph unicode="&#xe90f;" glyph-name="talk" horiz-adv-x="993" d="M232.089 201.917h-218.992c-7.204 0-13.096-5.892-13.096-13.096v-37.439c0-7.204 5.892-13.096 13.096-13.096h84.237v-164.846h-33.738c-7.204 0-13.096-5.892-13.096-13.096v-11.228c0-7.204 5.892-13.096 13.096-13.096h118.012c7.204 0 13.096 5.892 13.096 13.096v11.228c0 7.204-5.892 13.096-13.096 13.096h-33.738v164.846h84.237c7.204 0 13.096 5.892 13.096 13.096v37.439c0 7.204-5.892 13.096-13.096 13.096zM981.693 481.289l-37.062 5.21c-7.132 1.006-13.851-4.006-14.911-11.138l-40.87-273.444h-235.592c-7.204 0-13.096-5.892-13.096-13.096v-37.439c0-7.204 5.892-13.096 13.096-13.096h96.687v-164.846h-33.756c-7.204 0-13.096-5.892-13.096-13.096v-11.228c0-7.204 5.892-13.096 13.096-13.096h118.029c7.204 0 13.096 5.892 13.096 13.096v11.228c0 7.204-5.892 13.096-13.096 13.096h-33.738v164.846h132.545c7.617 0 11.839 8.048 12.378 11.659l47.32 316.56c1.060 7.132-3.898 13.779-11.030 14.785zM367.167 280.836c-2.335 23.031-21.809 41.212-45.469 41.212h-166.463v80.824l30.109-39.81c7.222-9.396 18.899-15.055 31.582-14.049l122.952 9.773c15.629 1.222 28.492 13.653 29.768 29.768 1.419 17.857-11.911 33.505-29.768 34.924l-100.657 7.994-97.46 128.862c-1.779 2.353-17.516 27.001-54.847 27.001s-68.321-30.594-68.321-68.321v-224.543c0-37.726 43.493-67.889 75.884-67.889h185.434l43.87-246.712c3.324-18.45 20.354-31.672 39.343-29.804 19.977 1.958 34.582 19.743 32.624 39.72l-28.582 291.032zM156.654 693.638c8.894-38.341-14.978-76.634-53.319-85.528s-76.634 14.978-85.528 53.319c-8.894 38.341 14.978 76.634 53.319 85.528s76.634-14.978 85.528-53.319zM804.271 226.421c33.145 0 75.884 30.163 75.884 67.889v224.543c0 37.726-30.594 68.321-68.321 68.321-17.264 0-37.187-10.276-51.847-21.881l-84.597-74.752-88.423 58.745c-13.276 8.839-31.349 6.755-42.218-5.515-11.875-13.402-10.617-33.9 2.785-45.775l105.921-93.759c14.48-12.845 36.595-13.168 51.469-0.018l2.102 1.85 36.505 32.265v-116.449h-166.678c-23.157-0.072-42.936-17.677-45.254-41.212l-28.582-291.032c-1.779-18.666 11.030-36.002 29.804-39.343 19.761-3.521 38.643 9.665 42.146 29.427l43.87 246.712h185.434zM847.508 737.619c33.184-21.165 42.928-65.224 21.763-98.409s-65.224-42.928-98.409-21.763c-33.184 21.165-42.928 65.224-21.763 98.409s65.224 42.928 98.409 21.763zM663.696 667.082c2.641 0 5.264 0.036 7.887 0.126 2.695 0.090 4.94 2.066 5.372 4.725s-1.096 5.246-3.629 6.162c-26.408 9.557-45.721 25.726-59.302 49.889 36.074 24.576 58.422 58.673 58.422 96.382-0.018 74.914-88.226 135.635-197.021 135.635s-197.003-60.721-197.003-135.617 88.208-135.617 197.003-135.617c20.211 0 39.72 2.102 58.081 6 39.882-17.3 87.974-27.666 130.174-27.666z" />
<glyph unicode="&#xe910;" glyph-name="good" d="M1024 526.188c-0.062 58.626-47.562 106.156-106.188 106.188h-151.782c-7.062 0-87.156 0-94.438 0-13.906-0.126-26.656-2.188-35.938-2.062-3.718 0-6.656 0.312-8.376 0.688l-1.278 0.372-0.312 0.938c-0.282 1.218-0.562 3.25-0.562 6.188 0 1.812 0.282 4.376 0.5 6.876l60.562 149.75c5.812 14.376 8.562 29.312 8.562 43.938 0.062 46.376-27.688 90.312-73.312 108.812-14.312 5.782-29.282 8.562-43.968 8.562-46.406 0.032-90.282-27.75-108.782-73.344l-0.094-0.156-102.718-258.626h0.062c-6.876-16.126-12.406-31.25-17.812-44.312-8.156-20.062-16.126-34.5-25.532-42.876-4.718-4.25-9.844-7.438-16.968-9.938-7.062-2.438-16.344-4.094-28.782-4.094-7.562 0.032-14.75-0.844-21.782-2.156h-166.062c-49.188 0-89-39.844-89-89v-403.406c0-49.156 39.812-88.968 89-88.968h123.156c27.282 0 49.438 22.126 49.438 49.438v40.968c8.656-5.062 17.782-9.656 27.594-13.344 34.312-13 75.062-18.438 124.126-18.438h382.5c58.626 0 106.188 47.438 106.188 106.094 0 13.782-2.812 26.906-7.656 38.906 42.312 14 72.906 53.75 72.906 100.75 0.032 19.188-5.376 37.094-14.282 52.5 12.844 10.5 21.562 24.312 26.532 38.75 5.438 15.5 7.312 31.812 7.312 48.406 0 10.282-2.188 20.282-5.938 30.032-2.75 6.938-6.344 13.782-10.75 20.25 32.124 18.25 53.842 52.72 53.874 92.314zM917.876 472.406h-17.688c-6.938 0-13.626-2.782-18.5-7.656s-7.688-11.626-7.688-18.5 2.812-13.626 7.688-18.5 11.562-7.688 18.5-7.688c5.032 0 9.156-1.126 13.188-3.218 5.938-3.032 11.594-8.75 15.5-15.438 3.938-6.562 5.75-14.094 5.626-17.812 0.062-16.594-2.876-30.156-7.438-38.156-2.312-4.062-4.782-6.906-7.812-9.188-3.062-2.25-6.876-4.126-12.688-5.376-9.876-2-17.626-9.468-20.062-19.25-2.468-9.812 0.876-20.062 8.688-26.5 12.188-10.188 19.75-24.626 19.75-41.188-0.062-29.688-24.094-53.75-53.844-53.812h-12.468c-10.876 0-20.626-6.688-24.438-16.876-3.876-10.188-1.062-21.626 7.126-28.876 11.376-10.156 18.344-24.126 18.344-40.094-0.032-29.688-24.094-53.718-53.844-53.782h-382.5c-40.126-0.032-72.062 4.126-96.626 11.938-18.5 5.876-32.782 13.656-44.344 23.376-3.876 3.312-7.406 6.938-10.75 10.718v372.472c4.218 1.062 9.094 1.75 15.25 1.75 22.656 0 42.312 4.094 58.906 12.5 12.376 6.218 22.75 14.812 31 24.344 12.376 14.406 20.438 30.594 27.438 46.968 7 16.438 13 33.25 20.062 49.812l0.312 0.626 102.656 258.562c10.218 25.25 34.562 40.532 60.25 40.562 8.094 0 16.344-1.532 24.344-4.782 25.312-10.188 40.594-34.532 40.626-60.282 0-8.094-1.5-16.312-4.75-24.344l-62-153.344c-0.844-2.032-1.376-4.094-1.688-6.25-0.782-5.812-1.188-11.312-1.188-16.626 0-9.75 1.376-18.968 4.968-27.562 2.626-6.438 6.594-12.406 11.468-17.126 7.312-7.188 16.156-11.188 24.062-13.25 8-2.126 15.438-2.562 22.344-2.594 14.844 0.094 28.218 2.188 35.938 2.062 7.282 0 87.376 0 94.438 0h151.782c29.688 0.032 53.876-24.094 53.876-53.844-0.064-29.682-24.128-53.744-53.814-53.776z" />
<glyph unicode="&#xe911;" glyph-name="comment" d="M820.862 832.068c-78.932 78.974-188.36 127.962-308.862 127.932-120.474 0.030-229.916-48.958-308.832-127.932-78.974-78.916-127.96-188.36-127.932-308.832-0.028-114.152 43.972-218.42 115.762-296.106 63.894-69.218 150.124-117.692 247.176-134.236v-117.18c0-15.448 8.938-29.476 22.936-36 14-6.524 30.514-4.328 42.318 5.604l289.378 243.386c54.72 45.756 94.478 96.292 119.828 152.39 25.422 56.082 36.174 116.874 36.13 182.142 0.030 120.472-48.944 229.916-127.902 308.832zM840.302 373.844c-20.012-44.058-51.124-84.532-98.474-124.26l-0.058-0.058-224.182-188.534v66.746c0 20.608-15.812 37.826-36.334 39.568-91.482 7.796-173.030 49.982-231.906 113.7-58.832 63.774-94.67 148.614-94.698 242.23 0.028 98.808 39.948 187.89 104.676 252.692 64.782 64.728 153.88 104.644 252.674 104.66 98.808-0.016 187.89-39.932 252.69-104.66 64.742-64.8 104.632-153.884 104.66-252.692-0.028-56.798-9.128-105.288-29.048-149.392zM303.542 576.188c-29.24 0-52.952-23.712-52.952-52.952s23.712-52.952 52.952-52.952c29.226 0 52.938 23.712 52.938 52.952s-23.71 52.952-52.938 52.952zM512 576.188c-29.226 0-52.938-23.712-52.938-52.952s23.712-52.952 52.938-52.952c29.24 0 52.952 23.712 52.952 52.952s-23.712 52.952-52.952 52.952zM720.472 576.188c-29.24 0-52.938-23.712-52.938-52.952s23.696-52.952 52.938-52.952c29.24 0 52.952 23.712 52.952 52.952s-23.712 52.952-52.952 52.952z" />
<glyph unicode="&#xe912;" glyph-name="injection" d="M442.218 563.22l95.078-95.082-43.004-43.004-95.080 95.080-42.192-42.19 95.082-95.082-45.442-45.44-95.082 95.080-42.192-42.192 95.082-95.082-45.44-45.438-95.082 95.080-74.65-74.65 31.744-31.742-86.822-86.82 51.024-51.022-145.242-145.244 87.628 9.738 96.56 96.56 51.024-51.024 86.82 86.822 31.742-31.744 383.796 383.798-204.476 204.476zM976.124 757.958l-182.57 182.57-5.152-5.156c-9.324-9.324-12.422-23.132-9.876-37.918 2.552-14.782 10.746-30.54 23.956-43.748l134.692-134.694c26.438-26.438 63.008-32.742 81.668-14.082l5.156 5.156-47.874 47.872zM788.688 815.57l-121.71-121.712-63.020 63.020c-6.872 6.87-18.012 6.87-24.882 0l-23.8-23.804c-6.872-6.872-6.872-18.012 0-24.882l236.388-236.392c6.872-6.87 18.012-6.87 24.884 0l23.8 23.8c6.87 6.872 6.87 18.012 0 24.884l-63.020 63.020 121.712 121.71-110.352 110.356z" />
<glyph unicode="&#xe913;" glyph-name="hearing" d="M698.352 290.060c-67.138 0-121.752-54.622-121.752-121.752 0-51 32.284-96.964 80.138-113.984-12.266-41.388-50.858-70.292-93.856-70.292-54.092 0-98.102 44.004-98.102 98.094l-0.32 124.508v0.758l30.576 0.304 4.146 65.966 1.374 20.3c-0.032 0-0.066-0.008-0.098-0.016l0.020 0.328c-19.276-4.606-39.374-6.934-59.712-6.934-18.172 0-36.102 2.116-53.756 5.56-1.988 0.422-4.060 0.594-6.028 1.062l0.004-0.070c-0.106 0.024-0.22 0.032-0.324 0.054l6.16-86.556 29.934 0.328 0.25-130.574c2.692-79.144 66.77-141.144 145.876-141.144 67.216 0 125.452 45.682 141.334 110.852 64.982 3.108 115.888 56.456 115.888 121.456 0 67.13-54.614 121.752-121.752 121.752zM698.352 213.468c24.898 0 45.16-20.26 45.16-45.16 0-24.906-20.26-45.16-45.16-45.16s-45.16 20.252-45.16 45.16c0 24.898 20.262 45.16 45.16 45.16zM288.1 677.318l-0.25 173.984c25.016 5.496 43.168 28.076 43.168 53.7 0.002 30.326-24.67 54.998-55.002 54.998s-55.004-24.672-55.004-54.996l0.32-227.686h66.768zM597.010 851.614l0.32-173.228v-1.070h66.77v227.688c0 30.324-24.672 54.996-54.996 54.996-30.332 0-55.004-24.672-55.004-54.996-0.002-25.626 18.152-48.204 42.91-53.39zM502.304 318.534c103.232 27.834 175.336 121.884 175.336 228.724l-0.32 87.992-94.94-0.328-0.632-99.484c-6.082-72.688-68.012-129.638-140.982-129.638-65.612 0-122.15 46.096-137.68 108.206-1.686 6.972-2.998 14.076-3.616 21.4h-0.156c0 0.008 0 0.008 0 0.008l-0.156 11.844-0.32 87.452v0.54l-94.94-0.328v-87.664c0-106.84 72.104-200.89 175.336-228.724 20.002-5.404 40.708-8.144 61.532-8.144 20.828 0 41.534 2.742 61.538 8.144z" />
<glyph unicode="&#xe914;" glyph-name="tel" d="M572.498 654.392l93.428 10.018c19.77 2.11 34.758 18.786 34.758 38.664v198.124c0 20.178-15.426 36.992-35.524 38.776l-228.63 19.878c-18.348 1.596-35.274-9.862-40.604-27.49 0 0-17.378-50.794-27.958-92.428-29.132-114.37-44.652-268.5-44.652-391.934 0-123.45 15.52-277.58 44.652-391.95 10.58-41.634 27.958-92.428 27.958-92.428 5.332-17.628 22.256-29.084 40.604-27.474l228.63 19.878c20.098 1.766 35.524 18.584 35.524 38.744v198.14c0 19.88-14.988 36.556-34.758 38.68l-93.428 10.002c-18.52 1.984-33.038 16.832-34.616 35.398 0 0-14.442 73.798-14.442 171.008 0 97.178 14.442 170.992 14.442 170.992 1.578 18.57 16.096 33.418 34.616 35.402z" />
<glyph unicode="&#xe915;" glyph-name="outgoing" d="M632.424 261.39c-11.97 11.952-31.040 12.96-44.198 2.354l-62.28-50.218c-12.33-9.958-29.998-9.76-42.13 0.468 0 0-53.096 35.732-111.6 94.236-58.504 58.47-94.254 111.618-94.254 111.618-10.21 12.114-10.406 29.782-0.45 42.112l50.2 62.28c10.624 13.174 9.616 32.226-2.354 44.196l-119.238 119.238c-12.152 12.114-31.544 12.978-44.738 1.942l-149.56-125.62c-12.006-10.1-15.312-27.158-7.872-40.996 0 0 20.096-41.052 38.788-72.47 51.316-86.346 134.732-188.456 209.018-262.76 74.32-74.284 176.376-157.718 262.774-209.034 31.418-18.658 72.452-38.806 72.452-38.806 13.804-7.37 30.916-4.080 40.98 7.924l125.636 149.56c11.036 13.158 10.172 32.57-1.942 44.72l-119.232 119.256zM661.812 421.302l49.642 7.872c-8.392 52.808-33.054 103.762-73.818 144.51-40.692 40.692-91.63 65.352-144.472 73.782l-7.89-49.626c42.796-6.902 83.792-26.672 116.828-59.71 33.054-33.034 52.86-74.050 59.71-116.828zM861.462 797.456c-89.96 89.94-202.276 144.114-318.944 162.52l-7.8-49.644c106.636-16.86 208.908-66.18 291.174-148.428 82.248-82.248 131.55-184.59 148.428-291.192l49.68 7.836c-18.442 116.686-72.614 228.968-162.538 318.908zM517.822 803.892l-7.8-49.698c74.788-11.774 146.52-46.264 204.2-103.942 57.696-57.694 92.224-129.392 103.96-204.218l49.66 7.836c-13.284 84.818-52.644 166.528-118.034 231.916-65.424 65.406-147.15 104.75-231.986 118.106z" />
<glyph unicode="&#xe916;" glyph-name="hospital" d="M768 488.812v430.376h-512v-430.376h-256v-512h1024v512h-256zM268.968 213.624h-111.312v111.312h111.312v-111.312zM567.656 213.624h-111.312v111.312h111.312v-111.312zM664.126 616.124h-112.438v-112.438h-79.376v112.438h-112.438v79.312h112.438v112.438h79.376v-112.438h112.438v-79.312zM866.344 213.624h-111.312v111.312h111.312v-111.312z" />
<glyph unicode="&#xe917;" glyph-name="hospitalization" d="M123.098 623.32h-123.098v-637.902h123.098v134.296h777.786v-134.296h123.1v134.296h0.016v145.492h-900.902zM919.312 507.222h-443.672v-174.868h548.36v70.18c0 57.818-46.868 104.688-104.688 104.688zM249.312 711.86c54.868 0 99.36 44.492 99.36 99.362 0 54.868-44.492 99.36-99.36 99.36-54.886 0-99.362-44.492-99.362-99.36 0-54.87 44.476-99.362 99.362-99.362zM280.426 660.762c-9.32 4.458-19.638 7.18-30.672 7.18h-12.164c-39.376 0-71.278-31.902-71.278-71.244v-165.64c0-54.524 44.182-98.688 98.688-98.688h152.756v157.95h-96.722v62.442l31.376-15.344c14.524-7.146 30.296-10.656 45.902-10.656 21.59 0 43.064 6.722 61.148 19.77l81.312 67.36c14.016 10.13 17.148 29.738 7.032 43.738-10.132 14.050-29.704 17.18-43.738 7.066l-89.868-55.444c-4.738-3.41-10.296-5.114-15.884-5.13-4.066 0-8.098 0.902-11.902 2.752l-103.13 52.836c-0.872 0.43-1.922 0.676-2.856 1.052zM615.508 755.846l-25.376 13.506-49.87-93.818 25.378-13.508z" />
<glyph unicode="&#xe918;" glyph-name="memo" d="M797.228 960h-454.588l-254.334-254.318v-641.412h708.924v895.73zM738.434 123.082h-591.316v548.28h229.842v229.842h361.474v-778.122zM270.256 543.496h345.006v-45.304h-345.006v45.304zM270.256 419.778h345.006v-45.304h-345.006v45.304zM270.256 296.060h345.006v-45.304h-345.006v45.304zM464.108 768.594h151.154v-144.948h-151.154v144.948zM825.098 831.732v-58.796h51.8v-778.124h-591.316v41.588h-58.81v-100.4h708.922v895.732z" />
<glyph unicode="&#xe919;" glyph-name="karte" d="M756.836 960h-366.592l-18.638-18.602-276.206-276.22v-557.378c0-94.714 77.068-171.8 171.8-171.8h489.638c94.696 0 171.764 77.084 171.764 171.8v680.436c-0.002 94.716-77.068 171.764-171.766 171.764zM864.994 107.8c0-59.75-48.424-108.192-108.156-108.192h-489.638c-59.75 0-108.192 48.442-108.192 108.192v531.026h167.438c49.764 0 90.146 40.366 90.146 90.148v167.422h340.246c59.732 0 108.156-48.444 108.156-108.158v-680.438zM685.432 641.154c-15.336-10.734-34.008-17.074-54.104-17.074-20.112 0-38.768 6.34-54.122 17.074-26.836-11.55-43.32-31.804-53.376-49.694-13.358-23.728-2.884-57.318 20.184-57.318 23.1 0 87.314 0 87.314 0s64.196 0 87.298 0c23.084 0 33.574 33.59 20.2 57.318-10.058 17.892-26.542 38.144-53.394 49.694zM631.326 646.556c39.446 0 71.388 31.942 71.388 71.37v17.108c0 39.392-31.942 71.388-71.388 71.388-39.428 0-71.404-31.996-71.404-71.388v-17.108c0-39.428 31.978-71.37 71.404-71.37zM279.27 439.254h460.788v-44.742h-460.788v44.742zM279.27 305.024h460.788v-44.76h-460.788v44.76zM279.27 170.78h322.562v-44.726h-322.562v44.726z" />
<glyph unicode="&#xe91a;" glyph-name="search" d="M899.562 835.602c-76.879 77.278-183.299 125.103-300.89 125.103-234.385 0-424.392-190.007-424.392-424.392 0-81.194 22.801-157.062 62.349-221.551l-1.055 1.85-205.576-205.656c-18.548-18.545-30.020-44.167-30.020-72.469 0-56.598 45.881-102.479 102.479-102.479 28.296 0 53.914 11.468 72.459 30.010l205.696 205.676c62.496-38.251 138.14-60.902 219.074-60.902 234.429 0 424.472 190.042 424.472 424.472 0 117.349-47.62 223.576-124.59 300.411l-0.006 0.006zM783.565 350.912c-47.175-47.146-112.33-76.305-184.296-76.305-143.989 0-260.715 116.726-260.715 260.715s116.726 260.715 260.715 260.715c143.987 0 260.711-116.722 260.715-260.708v0c0-0.139 0-0.304 0-0.469 0-71.87-29.195-136.921-76.372-183.941l-0.007-0.007z" />
<glyph unicode="&#xe91b;" glyph-name="link" d="M739.556-64h-568.888c-45.59 0-88.447 17.754-120.68 49.989s-49.985 75.094-49.985 120.678v568.888c0 45.588 17.754 88.445 49.987 120.678s75.091 49.987 120.68 49.987h227.555c31.421 0 56.889-25.469 56.889-56.889s-25.469-56.889-56.889-56.889h-227.557c-15.197 0-29.481-5.918-40.224-16.661s-16.663-25.030-16.663-40.226v-568.888c0-15.197 5.918-29.481 16.663-40.228 10.743-10.741 25.028-16.661 40.224-16.661h568.886c15.197 0 29.481 5.918 40.226 16.665 10.743 10.743 16.661 25.030 16.661 40.226v227.553c0 31.421 25.471 56.887 56.891 56.887s56.891-25.469 56.891-56.887v-227.555c0-45.588-17.754-88.443-49.989-120.68-32.235-32.233-75.094-49.987-120.678-49.987zM398.225 277.335c-14.561 0-29.119 5.552-40.226 16.661-22.216 22.216-22.216 58.239 0 80.454l471.769 471.771h-203.988c-31.421 0-56.887 25.469-56.887 56.889s25.467 56.889 56.887 56.889h341.333c7.868 0 15.362-1.598 22.178-4.485 6.361-2.691 12.335-6.59 17.561-11.699 0.002-0.002 0.002-0.002 0.004-0.004 0.038-0.038 0.076-0.074 0.111-0.111 0.010-0.010 0.024-0.022 0.034-0.032 0.028-0.028 0.060-0.058 0.087-0.087 0.020-0.020 0.038-0.038 0.058-0.058 0.022-0.022 0.046-0.046 0.064-0.064 0.040-0.040 0.083-0.081 0.123-0.123 0.040-0.040 0.083-0.083 0.123-0.123 0.022-0.020 0.046-0.046 0.062-0.064 0.022-0.020 0.038-0.038 0.058-0.058 0.032-0.030 0.060-0.058 0.087-0.089 0.010-0.008 0.024-0.022 0.032-0.032 0.038-0.038 0.076-0.076 0.111-0.113 0-0.002 0.002-0.002 0.004-0.004 5.107-5.23 9.008-11.204 11.697-17.563 2.887-6.816 4.487-14.308 4.487-22.178v-341.333c0-31.421-25.471-56.889-56.891-56.889s-56.887 25.469-56.887 56.889v203.988l-471.775-471.773c-11.099-11.109-25.657-16.659-40.216-16.659z" />
<glyph unicode="&#xe91c;" glyph-name="right-arrow" d="M796.462 487.956l-455.693 455.685c-10.54 10.548-24.609 16.359-39.611 16.359s-29.071-5.811-39.611-16.359l-33.559-33.55c-21.837-21.862-21.837-57.393 0-79.222l382.657-382.657-383.081-383.081c-10.54-10.548-16.359-24.609-16.359-39.603 0-15.010 5.819-29.071 16.359-39.628l33.559-33.542c10.548-10.548 24.609-16.359 39.611-16.359s29.071 5.811 39.611 16.359l456.118 456.101c10.565 10.581 16.367 24.709 16.334 39.728 0.033 15.077-5.769 29.196-16.334 39.769z" />
<glyph unicode="&#xe91d;" glyph-name="file" horiz-adv-x="1223" d="M308.181 920.885h-286.629c-11.853 0-21.551-9.698-21.551-21.551v-941.783c0-11.853 9.698-21.551 21.551-21.551h286.629c11.853 0 21.551 9.698 21.551 21.551v941.783c0 11.853-9.698 21.551-21.551 21.551zM164.866 30.825c-32.133 0-58.188 26.055-58.188 58.188s26.055 58.188 58.188 58.188 58.188-26.055 58.188-58.188-26.055-58.188-58.188-58.188zM267.234 565.292h-204.735v84.049h204.735v-84.049zM267.234 746.321h-204.735v84.049h204.735v-84.049zM679.032 920.885h-286.629c-11.853 0-21.551-9.698-21.551-21.551v-941.783c0-11.853 9.698-21.551 21.551-21.551h286.629c11.853 0 21.551 9.698 21.551 21.551v941.783c0 11.853-9.698 21.551-21.551 21.551zM535.717 30.825c-32.133 0-58.188 26.055-58.188 58.188s26.055 58.188 58.188 58.188 58.188-26.055 58.188-58.188-26.055-58.188-58.188-58.188zM638.085 565.292h-204.735v84.049h204.735v-84.049zM638.085 746.321h-204.735v84.049h204.735v-84.049zM1222.55 14.705l-163.53 927.494c-2.069 11.681-13.297 19.547-24.956 17.478l-282.276-49.783c-11.681-2.069-19.547-13.297-17.478-24.956l163.53-927.473c2.069-11.681 13.297-19.547 24.956-17.478l282.276 49.783c11.681 2.069 19.547 13.297 17.478 24.956zM807.821 827.87l201.632 35.559 14.59-82.778-201.632-35.559-14.59 82.778zM853.854 566.822l-14.59 82.778 201.632 35.559 14.59-82.778-201.632-35.559zM1047.469 58.238c-31.659-5.582-61.83 15.56-67.412 47.197-5.582 31.659 15.56 61.83 47.197 67.412 31.659 5.582 61.83-15.538 67.412-47.197s-15.56-61.83-47.197-67.412z" />
<glyph unicode="&#xe91e;" glyph-name="right-arrow02" d="M512 960c-282.78 0-512-229.22-512-512s229.22-512 512-512 512 229.22 512 512-229.22 512-512 512zM768.58 441.2l-243.98-232.12c-23.58-22.46-60.86-21.54-83.3 2.060-22.44 23.58-21.5 60.9 2.060 83.3l99.46 94.62h-235.6c-32.56 0-58.94 26.38-58.94 58.94s26.38 58.92 58.94 58.92h235.6l-99.46 94.62c-23.56 22.38-24.5 59.72-2.060 83.28 22.44 23.6 59.72 24.54 83.3 2.060l243.98-232.1c1.86-1.78 2.9-4.22 2.9-6.8s-1.040-5.020-2.9-6.8z" />
</font>
</defs>
</svg>
